toyotarumor.com - The Largest Bittorent System Login   |    Register
Latest Articles
Most searched
Hot torrents
Movie Torrents
View Torrent Info: The Vanishing (2018) [720p] [YTS] [YIFY]
View Torrent Info: The Old Man & the Gun (2018) [720p] [YTS] [YIFY]
View Torrent Info: American Hangman (2018) [720p] [YTS] [YIFY]
View Torrent Info: Rust Creek (2018) [720p] [YTS] [YIFY]
View Torrent Info: Where Hands Touch (2018) [720p] [YTS] [YIFY]
View Torrent Info: MARS: Inside SpaceX (2018) [720p] [YTS] [YIFY]
View Torrent Info: Constantine City of Demons: The Movie (2018) [720p] [YTS] [YIFY]
View Torrent Info: Space Battleship Yamato (2010) [720p] [YTS] [YIFY]
View Torrent Info: Beautiful Boy (2018) [720p] [YTS] [YIFY]
View Torrent Info: Wildlife (2018) [720p] [YTS] [YIFY]
Hot torrents
TV Torrents
View Torrent Info: vikings.s05e16.hdtv.x264-lucidtv[eztv]
View Torrent Info: The.Big.Bang.Theory.S12E11.HDTV.x264-SVA[eztv]
View Torrent Info: Gotham.S05E01.HDTV.x264-CRAVERS[eztv]
View Torrent Info: The.Blacklist.S06E01.HDTV.x264-KILLERS[eztv]
View Torrent Info: the.orville.s02e02.web.x264-tbs[eztv]
View Torrent Info: Young.Sheldon.S02E11.HDTV.x264-SVA[eztv]
View Torrent Info: Gotham.S05E01.WEB.x264-TBS[eztv]
View Torrent Info: the.orville.s02e01.web.x264-tbs[eztv]
View Torrent Info: seal.team.s02e11.hdtv.x264-lucidtv[eztv]
View Torrent Info: the.gifted.s02e10.web.x264-tbs[eztv]
toyotarumor.com > Categories > TV torrents > HD torrents


Browse TV torrents

Raymond Briggs - Snowmen, Bogeymen & Milkmen (1280x720p HD, 50fps, soft Eng subs) torrent



Download torrent: Download Raymond Briggs - Snowmen, Bogeymen & Milkmen (1280x720p HD, 50fps, soft Eng subs) torrent Magnet link Bookmark Torrent: Raymond Briggs - Snowmen, Bogeymen & Milkmen (1280x720p HD, 50fps, soft Eng subs) Raymond Briggs - Snowmen, Bogeymen & Milkmen (1280x720p HD, 50fps, soft Eng subs) torrent | if not working, try instead: Magnet Link
Info hash: 6148B06480F240F4D5329C630E7CFA47D86DA811
Category: Categories > TV torrents > HD torrents
Trackers:
7    View all torrent trackers >
Health:
 seeds: 0 ,  leechers: 0 |  Update >
Torrent language:  
Total Size: 1.60 GB
Torrent status: Added by trusted uploader Added by trusted uploader Trusted Uploader Site Friend Superman Sun
Uploader: Trusted Uploader Site Friend Superman Sun
Torrent added: 2019-01-06 16:59:13
 

Download Raymond Briggs - Snowmen, Bogeymen & Milkmen (1280x720p HD, 50fps, soft Eng subs) torrent if not working, try downloading torrent using Download Raymond Briggs - Snowmen, Bogeymen & Milkmen (1280x720p HD, 50fps, soft Eng subs) via Magnet Link




Torrent Description

Raymond Briggs - Snowmen, Bogeymen & Milkmen (1280x720p HD, 50fps, soft Eng subs)

Forty years ago Raymond Briggs used a pot of coloured pencils to create The Snowman, a wordless book of illustrations which would inspire the film enjoyed by millions of British households every Christmas. His timeless story of the friendship between a young boy and a Snowman continues to delight generation after generation with its effortless blend of warmth, humour and sadness.

After creating an instant classic with The Snowman, Briggs disturbed a generation with his anti-nuclear story When the Wind Blows, enthralled kids and adults alike with Fungus the Bogeyman and Father Christmas and, in recent years, moved readers to tears with Ethel & Ernest, a touching account of his parents' life story.

Raymond Briggs has been celebrating the ordinary and making it extraordinary for five decades. And the characters he has created have been both popular and influential. As Nick Park says in the film, he couldn't imagine Wallace and Gromit without the experience of reading Briggs's books. This playful, moving and often emotional portrait is told through interviews with Raymond, specially commissioned animation illustrated by Chris Riddell, and contributions from friends, colleagues and admirers, including Andy Serkis, Nick Park, Steve Bell and Posy Simmonds

First broadcast: 31 December 2018
Duration: 1 hour

Torrent dead? Request reseed at 1337x.to or torrentgalaxy.org - or ask at elsonroa at tutanota.com



Media info:
General
Format : MPEG-4
Format profile : Base Media
Codec ID : isom (isom/iso2/avc1/mp41)
File size : 1.63 GiB
Duration : 59mn 1s
Overall bit rate : 3 966 Kbps
Writing application : Lavf57.83.100

Video
ID : 1
Format : AVC
Format/Info : Advanced Video Codec
Format profile : [email protected]
Format settings, CABAC : Yes
Format settings, ReFrames : 4 frames
Codec ID : avc1
Codec ID/Info : Advanced Video Coding
Duration : 59mn 1s
Bit rate : 3 641 Kbps
Width : 1 280 pixels
Height : 720 pixels
Display aspect ratio : 16:9
Frame rate mode : Constant
Frame rate : 50.000 fps
Color space : YUV
Chroma subsampling : 4:2:0
Bit depth : 8 bits
Scan type : Progressive
Bits/(Pixel*Frame) : 0.079
Stream size : 1.50 GiB (92%)
Encoded date : UTC 1904-01-01 00:00:00
Tagged date : UTC 1904-01-01 00:00:00
Color range : Limited
Color primaries : BT.709
Transfer characteristics : BT.709
Matrix coefficients : BT.709

Audio
ID : 2
Format : AAC
Format/Info : Advanced Audio Codec
Format profile : LC
Codec ID : 40
Duration : 59mn 1s
Bit rate mode : Constant
Bit rate : 317 Kbps
Channel(s) : 2 channels
Channel positions : Front: L R
Sampling rate : 48.0 KHz
Frame rate : 46.875 fps (1024 spf)
Compression mode : Lossy
Stream size : 134 MiB (8%)
Language : English



#ElsonRoa -> To avoid fakes, ALWAYS check that the torrent was added on toyotarumor.com by ElsonRoa

http://toyotarumor.com/



Download Raymond Briggs - Snowmen, Bogeymen & Milkmen (1280x720p HD, 50fps, soft Eng subs) torrent


Comments (please add your comment)
No comments



Home - Browse Torrents - Upload Torrent - Stat - Forum - FAQ - Login
toyotarumor.com is in compliance with copyrights
2006-2018 toyotarumor.com
Sitemap