toyotarumor.com - The Largest Bittorent System Login   |    Register
Latest Articles
Most searched
Hot torrents
Movie Torrents
View Torrent Info: Smallfoot (2018) [720p] [YTS] [YIFY]
View Torrent Info: The Bouncer (2018) [720p] [YTS] [YIFY]
View Torrent Info: Blood Brother (2018) [720p] [YTS] [YIFY]
View Torrent Info: The Immortal Wars (2018) [720p] [YTS] [YIFY]
View Torrent Info: [Cargo] (2018) [720p] [YTS] [YIFY]
View Torrent Info: The Hitman Agency (2018) [720p] [YTS] [YIFY]
View Torrent Info: Time Jumpers (2018) [720p] [YTS] [YIFY]
View Torrent Info: Swiped (2018) [720p] [YTS] [YIFY]
View Torrent Info: Born Racer (2018) [720p] [YTS] [YIFY]
View Torrent Info: Down River (2018) [720p] [YTS] [YIFY]
Hot torrents
TV Torrents
View Torrent Info: The.Flash.2014.S05E08.HDTV.x264-KILLERS[eztv]
View Torrent Info: Arrow.S07E08.HDTV.x264-SVA[eztv]
View Torrent Info: Supergirl.S04E08.HDTV.x264-SVA[eztv]
View Torrent Info: DCs.Legends.of.Tomorrow.S04E07.HDTV.x264-SVA[eztv]
View Torrent Info: The.Good.Doctor.S02E10.HDTV.x264-SVA[eztv]
View Torrent Info: the.gifted.s02e09.web.x264-tbs[eztv]
View Torrent Info: Supernatural.S14E07.HDTV.x264-SVA[eztv]
View Torrent Info: lethal.weapon.s03e09.web.x264-tbs[eztv]
View Torrent Info: The.Rookie.S01E07.HDTV.x264-KILLERS[eztv]
View Torrent Info: Legacies.S01E05.HDTV.x264-SVA[eztv]
toyotarumor.com > Categories > TV torrents > HEVC/x265 torrents


Browse TV torrents

Versailles (2015) Season 3 S03 + Extras (1080p x265 HEVC 10bit AAC 5.1 English + French RCVR) [QxR] torrent



Download torrent: Download Versailles (2015) Season 3 S03 + Extras (1080p x265 HEVC 10bit AAC 5.1 English + French RCVR) [QxR] torrent Magnet link Bookmark Torrent: Versailles (2015) Season 3 S03 + Extras (1080p x265 HEVC 10bit AAC 5.1 English + French RCVR) [QxR] Versailles (2015) Season 3 S03 + Extras (1080p x265 HEVC 10bit AAC 5.1 English + French RCVR) [QxR] torrent | if not working, try instead: Magnet Link
Info hash: 129B3901C9C51280A19E944B82C631B9E5A7480E
Category: Categories > TV torrents > HEVC/x265 torrents
Trackers:
7    View all torrent trackers >
Health:
 seeds: 0 ,  leechers: 0 |  Update >
Torrent language:  
Total Size: 17.40 GB
Torrent status: Added by trusted uploader Added by trusted uploader Trusted Uploader Site Friend Superman Sun
Uploader: Trusted Uploader Site Friend Superman Sun
Torrent added: 2018-12-05 15:35:13
 

Download Versailles (2015) Season 3 S03 + Extras (1080p x265 HEVC 10bit AAC 5.1 English + French RCVR) [QxR] torrent if not working, try downloading torrent using Download Versailles (2015) Season 3 S03 + Extras (1080p x265 HEVC 10bit AAC 5.1 English + French RCVR) [QxR] via Magnet Link




Torrent Description



http://www.imdb.com/title/tt3830558/





Media Information

Code:

General
Format : Matroska
Format version : Version 4 / Version 2
File size : 1.78 GiB
Duration : 53 min 43 s
Overall bit rate : 4 755 kb/s
Encoded date : UTC 2018-11-29 07:57:32
Writing application : mkvmerge v12.0.0 ('Trust / Lust') 64bit
Writing library : libebml v1.3.4 + libmatroska v1.4.5
Cover : Yes
Attachments : cover.jpg

Video
ID : 1
Format : HEVC
Format/Info : High Efficiency Video Coding
Format profile : Main [email protected]@Main
Codec ID : V_MPEGH/ISO/HEVC
Duration : 53 min 43 s
Bit rate : 4 050 kb/s
Width : 1 920 pixels
Height : 1 080 pixels
Display aspect ratio : 16:9
Frame rate mode : Constant
Frame rate : 25.000 FPS
Color space : YUV
Chroma subsampling : 4:2:0
Bit depth : 10 bits
Bits/(Pixel*Frame) : 0.078
Stream size : 1.52 GiB (85%)
Writing library : x265 2.9+8-27d8424c799d:[Windows][MSVC 1900][64 bit] 10bit
Encoding settings : cpuid=1111039 / frame-threads=3 / numa-pools=8 / wpp / no-pmode / no-pme / no-psnr / no-ssim / log-level=2 / input-csp=1 / input-res=1920x1080 / interlace=0 / total-frames=80585 / level-idc=0 / high-tier=1 / uhd-bd=0 / ref=5 / no-allow-non-conformance / no-repeat-headers / annexb / no-aud / no-hrd / info / hash=0 / no-temporal-layers / open-gop / min-keyint=25 / keyint=250 / gop-lookahead=0 / bframes=8 / b-adapt=2 / b-pyramid / bframe-bias=0 / rc-lookahead=80 / lookahead-slices=4 / scenecut=40 / radl=0 / no-intra-refresh / ctu=64 / min-cu-size=8 / no-rect / no-amp / max-tu-size=32 / tu-inter-depth=1 / tu-intra-depth=1 / limit-tu=0 / rdoq-level=2 / dynamic-rd=0.00 / no-ssim-rd / signhide / no-tskip / nr-intra=0 / nr-inter=0 / no-constrained-intra / no-strong-intra-smoothing / max-merge=4 / limit-refs=3 / limit-modes / me=3 / subme=5 / merange=57 / temporal-mvp / weightp / weightb / no-analyze-src-pics / deblock=-3:-3 / no-sao / no-sao-non-deblock / rd=4 / no-early-skip / no-rskip / no-fast-intra / no-tskip-fast / no-cu-lossless / no-b-intra / no-splitrd-skip / rdpenalty=0 / psy-rd=1.40 / psy-rdoq=1.60 / no-rd-refine / no-lossless / cbqpoffs=0 / crqpoffs=0 / rc=crf / crf=21.0 / qcomp=0.60 / qpstep=4 / stats-write=0 / stats-read=0 / ipratio=1.40 / pbratio=1.30 / aq-mode=3 / aq-strength=1.00 / cutree / zone-count=0 / no-strict-cbr / qg-size=32 / no-rc-grain / qpmax=69 / qpmin=0 / no-const-vbv / sar=0 / overscan=0 / videoformat=5 / range=0 / colorprim=2 / transfer=2 / colormatrix=2 / chromaloc=0 / display-window=0 / max-cll=0,0 / min-luma=0 / max-luma=1023 / log2-max-poc-lsb=8 / vui-timing-info / vui-hrd-info / slices=1 / no-opt-qp-pps / no-opt-ref-list-length-pps / no-multi-pass-opt-rps / scenecut-bias=0.05 / no-opt-cu-delta-qp / no-aq-motion / no-hdr / no-hdr-opt / no-dhdr10-opt / no-idr-recovery-sei / analysis-reuse-level=5 / scale-factor=0 / refine-intra=0 / refine-inter=0 / refine-mv=0 / no-limit-sao / ctu-info=0 / no-lowpass-dct / refine-mv-type=0 / copy-pic=1 / max-ausize-factor=1.0 / no-dynamic-refine / no-single-sei
Default : Yes
Forced : No

Audio #1
ID : 2
Format : AAC
Format/Info : Advanced Audio Codec
Format profile : LC
Codec ID : A_AAC
Duration : 53 min 43 s
Bit rate : 471 kb/s
Channel(s) : 6 channels
Channel positions : Front: L C R, Side: L R, LFE
Sampling rate : 48.0 kHz
Frame rate : 46.875 FPS (1024 spf)
Compression mode : Lossy
Delay relative to video : 20 ms
Stream size : 181 MiB (10%)
Language : English
Default : Yes
Forced : No

Audio #2
ID : 3
Format : AAC
Format/Info : Advanced Audio Codec
Format profile : HE-AAC / LC
Codec ID : A_AAC
Duration : 53 min 42 s
Bit rate : 192 kb/s
Channel(s) : 6 channels
Channel positions : Front: L C R, Side: L R, LFE
Sampling rate : 48.0 kHz / 24.0 kHz
Frame rate : 23.438 FPS (1024 spf)
Compression mode : Lossy
Delay relative to video : 40 ms
Stream size : 73.8 MiB (4%)
Language : French
Default : No
Forced : No

Subtitle #1
ID : 4
Format : PGS
Muxing mode : zlib
Codec ID : S_HDMV/PGS
Codec ID/Info : Picture based subtitle format used on BDs/HD-DVDs
Duration : 52 min 40 s
Bit rate : 12.6 kb/s
Count of elements : 1262
Stream size : 4.76 MiB (0%)
Language : English
Default : No
Forced : No

Subtitle #2
ID : 5
Format : PGS
Muxing mode : zlib
Codec ID : S_HDMV/PGS
Codec ID/Info : Picture based subtitle format used on BDs/HD-DVDs
Duration : 52 min 29 s
Bit rate : 11.0 kb/s
Count of elements : 1238
Stream size : 4.12 MiB (0%)
Language : French
Default : No
Forced : No

Subtitle #3
ID : 6
Format : PGS
Muxing mode : zlib
Codec ID : S_HDMV/PGS
Codec ID/Info : Picture based subtitle format used on BDs/HD-DVDs
Duration : 52 min 58 s
Bit rate : 16.4 kb/s
Count of elements : 1653
Stream size : 6.21 MiB (0%)
Language : French
Default : No
Forced : No

Menu
00:00:00.000 : en:Chapter 01
00:02:36.080 : en:Chapter 02
00:25:46.320 : en:Chapter 03
00:52:55.960 : en:Chapter 04

Source Information

Code:

Release:
Versailles.2015.S03.MULTi.COMPLETE.BLURAY-ATMOS (Thanks!)


Note From QxR:

Quote:

Whilst we are happy for our releases to be re-posted on a platform we aren't on, please do so in an 'as-is' format. We ask that you do not create a new torrent, include all descriptions you see above including the QxR logo, tags, notes and screenshots. If you'd like to become a permanent poster on a website we don't post to, feel free to get in contact with a QxR member.




#QxR -> To avoid fakes, ALWAYS check that the torrent was added on toyotarumor.com by QxR

http://toyotarumor.com/



Download Versailles (2015) Season 3 S03 + Extras (1080p x265 HEVC 10bit AAC 5.1 English + French RCVR) [QxR] torrent


Comments (please add your comment)
No comments



Home - Browse Torrents - Upload Torrent - Stat - Forum - FAQ - Login
toyotarumor.com is in compliance with copyrights
2006-2018 toyotarumor.com
Sitemap