toyotarumor.com - The Largest Bittorent System Login   |    Register
Latest Articles
Most searched
Hot torrents
Movie Torrents
View Torrent Info: Incredibles 2 (2018) [720p] [YTS] [YIFY]
View Torrent Info: Satyameva Jayate (2018) [720p] [YTS] [YIFY]
View Torrent Info: Galveston (2018) [720p] [YTS] [YIFY]
View Torrent Info: The Night Comes for Us (2018) [720p] [YTS] [YIFY]
View Torrent Info: Malicious (2018) [720p] [YTS] [YIFY]
View Torrent Info: Illang: The Wolf Brigade (2018) [720p] [YTS] [YIFY]
View Torrent Info: Hiccup (2018) [720p] [YTS] [YIFY]
View Torrent Info: The Super (2017) [720p] [YTS] [YIFY]
View Torrent Info: Rogue (2007) [720p] [YTS] [YIFY]
View Torrent Info: Mutant Chronicles (2008) [720p] [YTS] [YIFY]
Hot torrents
TV Torrents
View Torrent Info: The.Walking.Dead.S09E03.HDTV.x264-SVA[eztv]
View Torrent Info: Supergirl.S04E02.HDTV.x264-SVA[eztv]
View Torrent Info: Blindspot.S04E02.HDTV.x264-SVA[eztv]
View Torrent Info: How.to.Get.Away.with.Murder.S05E04.HDTV.x264-KILLERS[eztv]
View Torrent Info: Arrow.S07E02.HDTV.x264-SVA[eztv]
View Torrent Info: Modern.Family.S10E04.HDTV.x264-PHOENiX[eztv]
View Torrent Info: DCs.Legends.of.Tomorrow.S04E01.HDTV.x264-SVA[eztv]
View Torrent Info: SEAL.Team.S02E03.HDTV.x264-PHOENiX[eztv]
View Torrent Info: NCIS.Los.Angeles.S10E04.HDTV.x264-SVA[eztv]
View Torrent Info: Titans.2018.S01E02.WEB.x264-PHOENiX[eztv]
toyotarumor.com > Categories > Movies torrents > Thriller torrents


Browse Movies torrents

Mine.2016.720p.BluRay.x264-x0r[PRiME] torrent



Download torrent: Magnet link Bookmark Torrent: Mine.2016.720p.BluRay.x264-x0r[PRiME] Download Mine.2016.720p.BluRay.x264-x0r[PRiME] torrent (magnet link)
Info hash: 456B63F9A342CBC93C0EF1524CDD25FC15A10D43
Category: Categories > Movies torrents > Thriller torrents
Trackers:
18    View all torrent trackers >
Health:
 seeds: 9 ,  leechers: 1 |  Update >
Torrent language:  
Total Size: 2.32 GB
Torrent status: Added by trusted uploader Added by trusted uploader Trusted Uploader Site Friend Superman Sun
Uploader: Trusted Uploader Site Friend Superman Sun
 

Download Mine.2016.720p.BluRay.x264-x0r[PRiME] via Magnet Link




Torrent Description


Mine.2016.720p.BluRay.x264-x0r[PRiME]

ImDb: http://www.imdb.com/title/tt3707104



Complete name : Mine.2016.720p.BluRay.x264-x0r[TRAILER-Theatrical Trailer][PRiME].mov
Format : MPEG-4
Format profile : QuickTime
Codec ID : qt 2005.03 (qt )
File size : 75.0 MiB
Duration : 2 min 0 s
Overall bit rate : 5 245 kb/s
Encoded date : UTC 2017-02-16 16:27:19
Tagged date : UTC 2017-02-16 16:27:56
Writing library : Apple QuickTime
Media/UUID : 1529FDC1-B047-4BF2-A598-6FD0E16890DC
©TIM : 00:00:05:00
©TSC : 24
©TSZ : 1

Video
ID : 1
Format : AVC
Format/Info : Advanced Video Codec
Format profile : [email protected]
Format settings, CABAC : No
Format settings, ReFrames : 2 frames
Codec ID : avc1
Codec ID/Info : Advanced Video Coding
Duration : 2 min 0 s
Bit rate : 5 131 kb/s
Width : 1 280 pixels
Height : 544 pixels
Display aspect ratio : 2.35:1
Frame rate mode : Constant
Frame rate : 24.000 FPS
Color space : YUV
Chroma subsampling : 4:2:0
Bit depth : 8 bits
Scan type : Progressive
Bits/(Pixel*Frame) : 0.307
Stream size : 73.4 MiB (98%)
Language : English
Encoded date : UTC 2017-02-16 16:27:14
Tagged date : UTC 2017-02-16 16:27:56
Color range : Limited
Color primaries : BT.709
Transfer characteristics : BT.709
Matrix coefficients : BT.709

Audio
ID : 3
Format : AAC
Format/Info : Advanced Audio Codec
Format profile : LC
Codec ID : 40
Duration : 2 min 0 s
Bit rate mode : Constant
Bit rate : 96.0 kb/s
Channel(s) : 2 channels
Channel positions : Front: L R
Sampling rate : 44.1 kHz
Frame rate : 43.066 FPS (1024 spf)
Compression mode : Lossy
Stream size : 1.34 MiB (2%)
Language : English
Encoded date : UTC 2017-02-16 16:27:18
Tagged date : UTC 2017-02-16 16:27:56

Other
ID : 2
Type : Time code
Format : QuickTime TC
Duration : 2 min 0 s
Time code of first frame : 00:00:05:00
Time code, striped : Yes
Language : English
Encoded date : UTC 2017-02-16 16:27:14
Tagged date : UTC 2017-02-16 16:27:56
Bit rate mode : CBR




Click Image To View Full Size


Click To View Screenshot
Click To View Screenshot
Click To View Screenshot



#Simmoncelli -> To avoid fakes, ALWAYS check that the torrent was added on toyotarumor.com by Simmoncelli

http://toyotarumor.com/




Comments (please add your comment)
No comments



Home - Browse Torrents - Upload Torrent - Stat - Forum - FAQ - Login
toyotarumor.com is in compliance with copyrights
2006-2018 toyotarumor.com
Sitemap