toyotarumor.com - The Largest Bittorent System Login   |    Register
Latest Articles
Most searched
Hot torrents
Movie Torrents
View Torrent Info: Incredibles 2 (2018) [720p] [YTS] [YIFY]
View Torrent Info: Satyameva Jayate (2018) [720p] [YTS] [YIFY]
View Torrent Info: Galveston (2018) [720p] [YTS] [YIFY]
View Torrent Info: The Night Comes for Us (2018) [720p] [YTS] [YIFY]
View Torrent Info: Malicious (2018) [720p] [YTS] [YIFY]
View Torrent Info: Illang: The Wolf Brigade (2018) [720p] [YTS] [YIFY]
View Torrent Info: The Dark (2018) [720p] [YTS] [YIFY]
View Torrent Info: Thunder Road (2018) [720p] [YTS] [YIFY]
View Torrent Info: Hiccup (2018) [720p] [YTS] [YIFY]
View Torrent Info: The Super (2017) [720p] [YTS] [YIFY]
Hot torrents
TV Torrents
View Torrent Info: The.Walking.Dead.S09E03.HDTV.x264-SVA[eztv]
View Torrent Info: Supergirl.S04E02.HDTV.x264-SVA[eztv]
View Torrent Info: Blindspot.S04E02.HDTV.x264-SVA[eztv]
View Torrent Info: How.to.Get.Away.with.Murder.S05E04.HDTV.x264-KILLERS[eztv]
View Torrent Info: Arrow.S07E02.HDTV.x264-SVA[eztv]
View Torrent Info: Modern.Family.S10E04.HDTV.x264-PHOENiX[eztv]
View Torrent Info: DCs.Legends.of.Tomorrow.S04E01.HDTV.x264-SVA[eztv]
View Torrent Info: SEAL.Team.S02E03.HDTV.x264-PHOENiX[eztv]
View Torrent Info: NCIS.Los.Angeles.S10E04.HDTV.x264-SVA[eztv]
View Torrent Info: Titans.2018.S01E02.WEB.x264-PHOENiX[eztv]
toyotarumor.com > Categories > Movies torrents > Thriller torrents


Browse Movies torrents

The.Last.Face.2017.720p.WEB-DL.X264.AC3-EVO[PRiME] torrent



Download torrent: Magnet link Bookmark Torrent: The.Last.Face.2017.720p.WEB-DL.X264.AC3-EVO[PRiME] Download The.Last.Face.2017.720p.WEB-DL.X264.AC3-EVO[PRiME] torrent (magnet link)
Info hash: 59B54C33C71AE864498802F128FB58913F11AB27
Category: Categories > Movies torrents > Thriller torrents
Trackers:
18    View all torrent trackers >
Health:
 seeds: 7 ,  leechers: 8 |  Update >
Torrent language:  
Total Size: 2.80 GB
Torrent status: Added by trusted uploader Added by trusted uploader Trusted Uploader Site Friend Superman Sun
Uploader: Trusted Uploader Site Friend Superman Sun
 

Download The.Last.Face.2017.720p.WEB-DL.X264.AC3-EVO[PRiME] via Magnet Link




Torrent Description


The.Last.Face.2017.720p.WEB-DL.X264.AC3-EVO[PRiME]

ImDb: http://www.imdb.com/title/tt3312180



Complete name : The.Last.Face.2017.720p.WEB-DL.X264.AC3-EVO[PRiME].mkv
Format : Matroska
Format version : Version 4 / Version 2
File size : 2.80 GiB
Duration : 2 h 10 min
Overall bit rate : 3 071 kb/s
Movie name : EVO
Encoded date : UTC 2017-05-11 09:22:11
Writing application : mkvmerge v6.7.0 ('Back to the Ground') 64bit built on Jan 8 2014 15:10:52
Writing library : libebml v1.3.0 + libmatroska v1.4.1

Video
ID : 1
Format : AVC
Format/Info : Advanced Video Codec
Format profile : [email protected]
Format settings, CABAC : Yes
Format settings, ReFrames : 4 frames
Codec ID : V_MPEG4/ISO/AVC
Duration : 2 h 10 min
Bit rate : 2 701 kb/s
Width : 1 280 pixels
Height : 536 pixels
Display aspect ratio : 2.40:1
Frame rate mode : Constant
Frame rate : 24.000 FPS
Color space : YUV
Chroma subsampling : 4:2:0
Bit depth : 8 bits
Scan type : Progressive
Bits/(Pixel*Frame) : 0.164
Stream size : 2.40 GiB (86%)
Writing library : x264 core 142 r2479 dd79a61
Encoding settings : cabac=1 / ref=1 / deblock=1:0:0 / analyse=0x3:0x113 / me=hex / subme=2 / psy=1 / psy_rd=1.00:0.00 / mixed_ref=0 / me_range=16 / chroma_me=1 / trellis=0 / 8x8dct=1 / cqm=0 / deadzone=21,11 / fast_pskip=1 / chroma_qp_offset=0 / threads=12 / lookahead_threads=4 / sliced_threads=0 / nr=0 / decimate=1 / interlaced=0 / bluray_compat=0 / constrained_intra=0 / bframes=3 / b_pyramid=2 / b_adapt=1 / b_bias=0 / direct=1 / weightb=1 / open_gop=0 / weightp=1 / keyint=240 / keyint_min=24 / scenecut=40 / intra_refresh=0 / rc_lookahead=10 / rc=abr / mbtree=1 / bitrate=2701 / ratetol=1.0 / qcomp=0.60 / qpmin=0 / qpmax=69 / qpstep=4 / vbv_maxrate=62500 / vbv_bufsize=78125 / nal_hrd=none / filler=0 / ip_ratio=1.40 / aq=1:1.00
Default : Yes
Forced : No
Color range : Limited
Color primaries : BT.709
Transfer characteristics : BT.709
Matrix coefficients : BT.709

Audio
ID : 2
Format : AC-3
Format/Info : Audio Coding 3
Mode extension : CM (complete main)
Format settings, Endianness : Big
Codec ID : A_AC3
Duration : 2 h 10 min
Bit rate mode : Constant
Bit rate : 384 kb/s
Channel(s) : 6 channels
Channel positions : Front: L C R, Side: L R, LFE
Sampling rate : 48.0 kHz
Frame rate : 31.250 FPS (1536 spf)
Compression mode : Lossy
Delay relative to video : -5 ms
Stream size : 359 MiB (13%)
Title : Surround
Language : English
Default : Yes
Forced : No

Menu
00:00:00.000 : :Chapitre 1
00:11:03.375 : :Chapitre 2
00:19:29.708 : :Chapitre 3
00:31:37.333 : :Chapitre 4
00:42:08.541 : :Chapitre 5
00:50:04.500 : :Chapitre 6
00:59:43.041 : :Chapitre 7
01:11:16.833 : :Chapitre 8
01:21:02.791 : :Chapitre 9
01:32:33.333 : :Chapitre 10
01:40:00.791 : :Chapitre 11
01:51:33.708 : :Chapitre 12
02:02:05.708 : :Chapitre 13




Click Image To View Full Size


Click To View Screenshot
Click To View Screenshot
Click To View Screenshot



#Simmoncelli -> To avoid fakes, ALWAYS check that the torrent was added on toyotarumor.com by Simmoncelli

http://toyotarumor.com/




Comments (please add your comment)
No comments



Home - Browse Torrents - Upload Torrent - Stat - Forum - FAQ - Login
toyotarumor.com is in compliance with copyrights
2006-2018 toyotarumor.com
Sitemap