toyotarumor.com - The Largest Bittorent System Login   |    Register
Latest Articles
Most searched
Hot torrents
Movie Torrents
View Torrent Info: Incredibles 2 (2018) [720p] [YTS] [YIFY]
View Torrent Info: BlacKkKlansman (2018) [720p] [YTS] [YIFY]
View Torrent Info: The Dark (2018) [720p] [YTS] [YIFY]
View Torrent Info: Satyameva Jayate (2018) [720p] [YTS] [YIFY]
View Torrent Info: Galveston (2018) [720p] [YTS] [YIFY]
View Torrent Info: The Night Comes for Us (2018) [720p] [YTS] [YIFY]
View Torrent Info: Malicious (2018) [720p] [YTS] [YIFY]
View Torrent Info: Adam Sandler: 100% Fresh (2018) [720p] [YTS] [YIFY]
View Torrent Info: Thunder Road (2018) [720p] [YTS] [YIFY]
View Torrent Info: Illang: The Wolf Brigade (2018) [720p] [YTS] [YIFY]
Hot torrents
TV Torrents
View Torrent Info: The.Walking.Dead.S09E03.HDTV.x264-SVA[eztv]
View Torrent Info: Supergirl.S04E02.HDTV.x264-SVA[eztv]
View Torrent Info: Blindspot.S04E02.HDTV.x264-SVA[eztv]
View Torrent Info: How.to.Get.Away.with.Murder.S05E04.HDTV.x264-KILLERS[eztv]
View Torrent Info: Arrow.S07E02.HDTV.x264-SVA[eztv]
View Torrent Info: Modern.Family.S10E04.HDTV.x264-PHOENiX[eztv]
View Torrent Info: DCs.Legends.of.Tomorrow.S04E01.HDTV.x264-SVA[eztv]
View Torrent Info: The.Flash.2014.S05E03.HDTV.x264-SVA[eztv]
View Torrent Info: Titans.2018.S01E02.WEB.x264-PHOENiX[eztv]
View Torrent Info: The.Big.Bang.Theory.S12E05.HDTV.x264-SVA[eztv]
toyotarumor.com > Categories > Movies torrents > Thriller torrents


Browse Movies torrents

The.Last.Face.2017.1080p.WEB-DL.H264.AC3-EVO[PRiME] torrent



Download torrent: Magnet link Bookmark Torrent: The.Last.Face.2017.1080p.WEB-DL.H264.AC3-EVO[PRiME] Download The.Last.Face.2017.1080p.WEB-DL.H264.AC3-EVO[PRiME] torrent (magnet link)
Info hash: 8233D6FBBDA0686D8B2EDEEE2AAFD102F6B84F87
Category: Categories > Movies torrents > Thriller torrents
Trackers:
18    View all torrent trackers >
Health:
 seeds: 2 ,  leechers: 1 |  Update >
Torrent language:  
Total Size: 4.49 GB
Torrent status: Added by trusted uploader Added by trusted uploader Trusted Uploader Site Friend Superman Sun
Uploader: Trusted Uploader Site Friend Superman Sun
 

Download The.Last.Face.2017.1080p.WEB-DL.H264.AC3-EVO[PRiME] via Magnet Link




Torrent Description


The.Last.Face.2017.1080p.WEB-DL.H264.AC3-EVO[PRiME]

ImDb: http://www.imdb.com/title/tt3312180



Complete name : The.Last.Face.2017.1080p.WEB-DL.H264.AC3-EVO[PRiME].mkv
Format : Matroska
Format version : Version 4 / Version 2
File size : 4.49 GiB
Duration : 2 h 10 min
Overall bit rate : 4 923 kb/s
Movie name : EVO
Encoded date : UTC 2017-05-11 09:20:27
Writing application : mkvmerge v6.7.0 ('Back to the Ground') 64bit built on Jan 8 2014 15:10:52
Writing library : libebml v1.3.0 + libmatroska v1.4.1

Video
ID : 2
Format : AVC
Format/Info : Advanced Video Codec
Format profile : [email protected]
Format settings, CABAC : Yes
Format settings, ReFrames : 5 frames
Codec ID : V_MPEG4/ISO/AVC
Duration : 2 h 10 min
Bit rate : 4 441 kb/s
Width : 1 908 pixels
Height : 796 pixels
Display aspect ratio : 2.40:1
Frame rate mode : Constant
Frame rate : 24.000 FPS
Color space : YUV
Chroma subsampling : 4:2:0
Bit depth : 8 bits
Scan type : Progressive
Bits/(Pixel*Frame) : 0.122
Stream size : 4.05 GiB (90%)
Language : English
Default : Yes
Forced : No
Color range : Limited
Color primaries : BT.709
Transfer characteristics : BT.709
Matrix coefficients : BT.709

Audio
ID : 1
Format : AC-3
Format/Info : Audio Coding 3
Mode extension : CM (complete main)
Format settings, Endianness : Big
Codec ID : A_AC3
Duration : 2 h 10 min
Bit rate mode : Constant
Bit rate : 384 kb/s
Channel(s) : 6 channels
Channel positions : Front: L C R, Side: L R, LFE
Sampling rate : 48.0 kHz
Frame rate : 31.250 FPS (1536 spf)
Compression mode : Lossy
Stream size : 359 MiB (8%)
Language : English
Default : Yes
Forced : No

Menu
00:00:00.000 : en:Chapitre 1
00:11:03.291 : en:Chapitre 2
00:19:29.623 : en:Chapitre 3
00:31:37.248 : en:Chapitre 4
00:42:08.455 : en:Chapitre 5
00:50:04.413 : en:Chapitre 6
00:59:42.954 : en:Chapitre 7
01:11:16.745 : en:Chapitre 8
01:21:02.702 : en:Chapitre 9
01:32:33.243 : en:Chapitre 10
01:40:00.700 : en:Chapitre 11
01:51:33.616 : en:Chapitre 12
02:02:05.616 : en:Chapitre 13




Click Image To View Full Size


Click To View Screenshot
Click To View Screenshot
Click To View Screenshot



#Simmoncelli -> To avoid fakes, ALWAYS check that the torrent was added on toyotarumor.com by Simmoncelli

http://toyotarumor.com/




Comments (please add your comment)
No comments



Home - Browse Torrents - Upload Torrent - Stat - Forum - FAQ - Login
toyotarumor.com is in compliance with copyrights
2006-2018 toyotarumor.com
Sitemap