toyotarumor.com - The Largest Bittorent System Login   |    Register
Latest Articles
Most searched
Hot torrents
Movie Torrents
View Torrent Info: Incredibles 2 (2018) [720p] [YTS] [YIFY]
View Torrent Info: BlacKkKlansman (2018) [720p] [YTS] [YIFY]
View Torrent Info: Adam Sandler: 100% Fresh (2018) [720p] [YTS] [YIFY]
View Torrent Info: Juliet, Naked (2018) [720p] [YTS] [YIFY]
View Torrent Info: The Dark (2018) [720p] [YTS] [YIFY]
View Torrent Info: Satyameva Jayate (2018) [720p] [YTS] [YIFY]
View Torrent Info: An Interview with God (2018) [720p] [YTS] [YIFY]
View Torrent Info: Galveston (2018) [720p] [YTS] [YIFY]
View Torrent Info: The Night Comes for Us (2018) [720p] [YTS] [YIFY]
View Torrent Info: Malicious (2018) [720p] [YTS] [YIFY]
Hot torrents
TV Torrents
View Torrent Info: The.Walking.Dead.S09E03.HDTV.x264-SVA[eztv]
View Torrent Info: Supergirl.S04E02.HDTV.x264-SVA[eztv]
View Torrent Info: Blindspot.S04E02.HDTV.x264-SVA[eztv]
View Torrent Info: How.to.Get.Away.with.Murder.S05E04.HDTV.x264-KILLERS[eztv]
View Torrent Info: Arrow.S07E02.HDTV.x264-SVA[eztv]
View Torrent Info: DCs.Legends.of.Tomorrow.S04E01.HDTV.x264-SVA[eztv]
View Torrent Info: The.Flash.2014.S05E03.HDTV.x264-SVA[eztv]
View Torrent Info: Titans.2018.S01E02.WEB.x264-PHOENiX[eztv]
View Torrent Info: The.Big.Bang.Theory.S12E05.HDTV.x264-SVA[eztv]
View Torrent Info: the.last.ship.s05e07.webrip.x264-tbs[eztv]
toyotarumor.com > Categories > Anime torrents > Tokyo Ghoul torrents


Browse Anime torrents

tokyo.ghoul.ep.01.12.season.1.uncensored.english.dubbed.720p.x264.arizone torrent



Download torrent: Magnet link Bookmark Torrent: tokyo.ghoul.ep.01.12.season.1.uncensored.english.dubbed.720p.x264.arizone Download tokyo.ghoul.ep.01.12.season.1.uncensored.english.dubbed.720p.x264.arizone torrent (magnet link)
Info hash: 94C0D7E017C80E882E41F8450DE84EA7468637DE
Category: Categories > Anime torrents > Tokyo Ghoul torrents
Trackers:
12    View all torrent trackers >
Health:
 seeds: 13 ,  leechers: 2 |  Update >
Torrent language:  
Total Size: 986.75 MB
Torrent status: Added by trusted uploader Added by trusted uploader Trusted Uploader Site Friend Superman Sun
Uploader: Trusted Uploader Site Friend Superman Sun
 

Download tokyo.ghoul.ep.01.12.season.1.uncensored.english.dubbed.720p.x264.arizone via Magnet Link




Torrent Description






[image=r8eQ73ONuh]



Title - TOKYO GHOUL [2014] ENGLISH DUBBED



SEASON 1 Complete



EPISODE LIST - 01 to 12

1 "Tragedy" "Higeki" (悲劇) July 4, 2014

2 "Incubation" "Fuka" (孵化) July 11, 2014

3 "Dove" "Shirohato" (白鳩) July 18, 2014

4 "Supper" "Bansan" (晩餐) July 25, 2014

5 "Scar" "Zankon" (残痕) August 1, 2014

6 "Cloudburst" "Shūu" (驟雨) August 8, 2014

7 "Captivity" "Yūshū" (幽囚) August 15, 2014

8 "Circular" "Enkan" (円環) August 22, 2014

9 "Birdcage" "Torikago" (鳥籠) August 29, 2014

10 "Aogiri" "Qing Tong" (青桐) September 5, 2014

11 "High Spirits" "Shōten" (衝天) September 12, 2014

12 "Ghoul" "Kushu" (喰種) September 19, 2014


General


Format : MPEG-4
Format profile : Base Media
Codec ID : isom
File size : 80 MiB (average)
Duration : 26mn 8s
Overall bit rate mode : Variable
Overall bit rate : 450 Kbps (average)

Video


Format : AVC
Format/Info : Advanced Video Codec
Format profile : [email protected]
Format settings, CABAC : Yes
Format settings, ReFrames : 8 frames
Codec ID : avc1
Codec ID/Info : Advanced Video Coding
Duration : 26mn 8s
Bit rate : 420 Kbps (average)
Maximum bit rate : 1 800 Kbps (average)
Width : 1 280 pixels
Height : 720 pixels
Display aspect ratio : 16:9

Frame rate mode : Constant
Frame rate : 23.976 fps
Color space : YUV
Chroma subsampling : 4:2:0
Bit depth : 8 bits
Scan type : Progressive
Bits/(Pixel*Frame) : 0.019
Stream size : 78.4 MiB (91%)
Title : Video

Audio


Format : AAC
Format/Info : Advanced Audio Codec
Format profile : HE-AAC / LC
Codec ID : 40
Duration : 26mn 8s
Bit rate mode : Variable
Bit rate : 40.0 Kbps
Maximum bit rate : 50.8 Kbps
Channel(s) : 2 channels
Channel positions : Front: L R
Sampling rate : 44.1 KHz / 22.05 KHz
Compression mode : Lossy
Stream size : 7.48 MiB (9%)









#ARIZONE -> To avoid fakes, ALWAYS check that the torrent was added on toyotarumor.com by ARIZONE

http://toyotarumor.com/




Comments (please add your comment)
No comments



Home - Browse Torrents - Upload Torrent - Stat - Forum - FAQ - Login
toyotarumor.com is in compliance with copyrights
2006-2018 toyotarumor.com
Sitemap